<?xml version="1.0" standalone="no"?>
<!DOCTYPE svg PUBLIC "-//W3C//DTD SVG 1.1//EN" "http://www.w3.org/Graphics/SVG/1.1/DTD/svg11.dtd" >
<svg xmlns="http://www.w3.org/2000/svg">
<metadata>Generated by IcoMoon</metadata>
<defs>
<font id="lamisse" horiz-adv-x="1024">
<font-face units-per-em="1024" ascent="960" descent="-64" />
<missing-glyph horiz-adv-x="1024" />
<glyph unicode="&#x20;" horiz-adv-x="512" d="" />
<glyph unicode="&#xe900;" glyph-name="shopping-cart" d="M1024 831.999l-31.701-85.333h-82.304l-148.224-512h-564.864l-196.907 469.333h717.312l-24.064-85.333h-564.907l125.312-298.667h444.928l146.432 512h178.987zM362.667 191.999c-35.328 0-64-28.672-64-64 0-35.371 28.672-64 64-64s64 28.629 64 64c0 35.328-28.672 64-64 64zM657.067 490.666l-81.067-298.667c-35.328 0-64-28.629-64-64s28.672-64 64-64 64 28.629 64 64c0 35.328-28.672 64-64 64z" />
<glyph unicode="&#xe901;" glyph-name="shopping-bag" d="M682.667 703.999v85.333c0 94.251-76.416 170.667-170.667 170.667s-170.667-76.416-170.667-170.667v-85.333h-213.333v-768h768v768h-213.333zM384 789.332c0 70.571 57.429 128 128 128s128-57.429 128-128v-85.333h-256v85.333zM810.667 21.332h-597.333v597.333h128v-64c0-11.776 9.557-21.333 21.333-21.333s21.333 9.557 21.333 21.333v64h256v-64c0-11.776 9.557-21.333 21.333-21.333s21.333 9.557 21.333 21.333v64h128v-597.333z" />
<glyph unicode="&#xe902;" glyph-name="magnifier" d="M1015.851 36.436l-264.747 264.747c49.792 68.48 79.232 152.704 79.232 243.669 0 228.907-186.24 415.147-415.189 415.147-228.907 0-415.147-186.24-415.147-415.147 0-228.949 186.24-415.147 415.147-415.147 86.784 0 167.381 26.752 234.112 72.448l266.155-266.155 100.437 100.437zM121.771 544.852c0 161.792 131.627 293.419 293.419 293.419s293.419-131.627 293.419-293.419-131.627-293.419-293.419-293.419c-161.835 0-293.419 131.627-293.419 293.419z" />
<glyph unicode="&#xe903;" glyph-name="pdf" d="M484.821 874.667c177.28 0 112.512-256 112.512-256s256 70.4 256-104.832v-492.501h-682.667v853.333h314.155zM520.064 960h-434.731v-1024h853.333v613.803c0 102.016-283.648 410.197-418.603 410.197zM725.333 405.333h-112.128v-157.269h38.699v62.805h63.573v31.232h-63.573v29.781h73.429v33.451zM516.267 405.333h-68.224v-157.269h68.224c22.912 0 41.003 7.723 53.845 22.827 23.68 28.075 25.045 86.784-2.645 114.859-12.715 12.8-30.379 19.584-51.2 19.584zM486.741 371.925h21.163c20.181 0 34.219-7.381 39.040-27.477 2.731-11.392 3.285-28.971-0.896-40.448-5.461-14.976-16.256-22.528-32.171-22.528h-27.179v90.453zM369.835 405.333h-71.168v-157.269h38.699v54.485h32.469c26.411 0 45.397 11.819 52.224 32.555 4.053 12.416 4.053 25.472 0 37.76-6.827 20.651-25.856 32.469-52.224 32.469zM337.365 374.101h23.296c10.027 0 19.925-1.195 24.576-9.728 2.859-5.248 2.859-15.616 0-20.864-4.651-8.491-14.549-9.685-24.576-9.685h-23.296v40.277z" />
<glyph unicode="&#xe904;" glyph-name="picture" d="M213.333 597.333c0 35.328 28.672 64 64 64s64-28.672 64-64c0-35.371-28.672-64-64-64s-64 28.629-64 64zM597.333 576l-107.477-170.667-105.856 83.627-170.667-254.293h597.333l-213.333 341.333zM938.667 746.667v-597.333h-853.333v597.333h853.333zM1024 832h-1024v-768h1024v768z" />
<glyph unicode="&#xe905;" glyph-name="sort" d="M341.44 533.44v-170.88h170.56l-256-298.56-256 298.56h170.56v170.88h-170.56l256 298.56 256-298.56zM1024 320h-426.56v-85.44h426.56zM1024 64h-426.56v85.44h426.56zM1024 405.44h-426.56v85.12h426.56zM1024 576h-426.56v85.44h426.56zM1024 746.56h-426.56v85.44h426.56z" />
<glyph unicode="&#xe980;" glyph-name="arrow-1" d="M555.733 917.332l-121.472-120.661 263.509-263.509h-697.771v-170.325h697.771l-263.509-263.509 121.472-120.661 468.267 469.333z" />
<glyph unicode="&#xe981;" glyph-name="arrow-2" d="M213.333 831.999l130.432 128 509.568-512-509.568-512-130.432 128 384 384z" />
<glyph unicode="&#xe982;" glyph-name="checkmark" d="M865.493 874.666l-481.493-493.525-225.536 213.803-158.464-158.549 384-372.395 640 652.16z" />
<glyph unicode="&#xe983;" glyph-name="control-panel" d="M256 191.999h-85.333v-213.333h-85.333v213.333h-85.333v128h256v-128zM170.667 917.332h-85.333v-512h85.333v512zM640 618.666h-256v-128h85.333v-512h85.333v512h85.333v128zM554.667 917.332h-85.333v-213.333h85.333v213.333zM1024 319.999h-256v-128h85.333v-213.333h85.333v213.333h85.333v128zM938.667 917.332h-85.333v-512h85.333v512z" />
<glyph unicode="&#xe984;" glyph-name="percentage-discount" d="M444.6 562.423c39.501 42.844 61.265 100.315 61.265 161.842 0 117.145-83.674 235.734-243.625 235.734-74.438 0-137.236-25.567-181.613-73.937-39.309-42.851-60.952-100.309-60.952-161.797 0-117.158 83.319-235.74 242.565-235.74 74.716-0.003 137.788 25.545 182.36 73.898zM262.24 850.391c87.64 0 127.553-65.423 127.553-126.208 0-33.066-11.126-63.676-31.348-86.181-22.559-25.136-55.344-38.428-94.784-38.428-89.856 0-130.791 65.416-130.791 126.196 0 62.022 40.009 124.621 129.37 124.621zM843.968 869.060c-14.495-0.262-34.286-9.3-43.981-20.078l-719.554-800.018c-9.692-10.785-2.826-25.903 11.669-25.903h94.177c14.495 0 34.267 8.84 43.943 19.634l715.106 799.855c9.673 10.804 9.031 28.381-14.92 28.375l-86.439-1.865zM765.321 398.506c-73.001 0-134.607-25.095-178.145-72.541-38.559-42.021-59.802-98.396-59.802-158.715 0-114.916 81.735-231.25 237.95-231.25 73.314 0 135.169 25.069 178.902 72.496 38.754 42.033 60.096 98.412 60.096 158.754-0.003 114.916-82.093 231.257-239.001 231.257zM766.732 42.12c-87.423 0-127.256 65.649-127.256 126.617 0 33.203 11.12 63.928 31.325 86.519 22.524 25.21 55.207 38.533 94.522 38.533 87.429 0 127.243-65.637 127.243-126.624 0-33.197-11.123-63.928-31.313-86.519-22.53-25.203-55.216-38.527-94.522-38.527z" />
<glyph unicode="&#xe985;" glyph-name="badge" horiz-adv-x="1003" d="M644.267 409.599c-25.6 0-29.867-25.6-29.867-76.8 0-55.467 4.267-81.067 29.867-81.067s29.867 25.6 29.867 81.067c4.267 51.2 0 76.8-29.867 76.8zM384 567.466c0 46.933 0 76.8-29.867 76.8-25.6 0-29.867-25.6-29.867-76.8 0-55.467 4.267-81.067 29.867-81.067 29.867 0 29.867 25.6 29.867 81.067zM989.867 507.732c25.6 29.867 12.8 76.8-21.333 98.133-59.733 29.867-68.267 42.667-51.2 110.933 4.267 38.4-25.6 72.533-64 72.533-68.267 0-81.067 8.533-93.867 76.8-8.533 38.4-51.2 59.733-89.6 42.667-59.733-29.867-76.8-25.6-119.467 25.6-25.6 29.867-72.533 29.867-98.133 0-42.667-51.2-59.733-55.467-119.467-25.6-34.133 17.067-81.067-4.267-89.6-42.667-12.8-64-25.6-72.533-93.867-76.8-38.4 0-68.267-34.133-59.733-76.8 12.8-68.267 8.533-81.067-51.2-110.933-38.4-12.8-51.2-59.733-25.6-93.867 42.667-51.2 42.667-68.267 0-119.467-25.6-29.867-12.8-76.8 21.333-98.133 59.733-29.867 68.267-42.667 51.2-110.933-4.267-38.4 25.6-72.533 64-72.533 68.267 0 81.067-12.8 93.867-76.8 8.533-38.4 51.2-59.733 89.6-42.667 59.733 29.867 76.8 25.6 119.467-25.6 25.6-29.867 72.533-29.867 98.133 0 51.2 64 68.267 51.2 119.467 25.6 38.4-17.067 81.067 4.267 89.6 42.667 17.067 76.8 42.667 76.8 93.867 76.8 38.4 0 68.267 38.4 59.733 76.8-12.8 68.267-8.533 81.067 51.2 110.933 34.133 17.067 46.933 64 21.333 98.133-38.4 46.933-38.4 64 4.267 115.2zM251.733 563.199c0 89.6 17.067 132.267 102.4 132.267s102.4-42.667 102.4-132.267c0-89.6-17.067-132.267-102.4-132.267-85.333 4.267-102.4 46.933-102.4 132.267zM392.533 187.732h-64l277.333 520.533h59.733l-273.067-520.533zM644.267 200.532c-85.333 0-102.4 42.667-102.4 132.267s17.067 132.267 102.4 132.267 102.4-42.667 102.4-132.267c4.267-89.6-17.067-132.267-102.4-132.267z" />
<glyph unicode="&#xe986;" glyph-name="mail" d="M934 837.999h-844c-13.854 0-26.824-3.406-38.558-9.020l458.558-458.558 102.778 98.774c0 0 0.008 0.010 0.010 0.014s0.010 0.008 0.010 0.008l359.774 359.754c-11.736 5.618-24.714 9.028-38.572 9.028zM1014.992 786.543l-338.566-338.548 338.554-338.554c5.614 11.734 9.020 24.704 9.020 38.558v600c0 13.846-3.398 26.814-9.008 38.544zM9.020 786.557c-5.614-11.734-9.020-24.704-9.020-38.558v-600c0-13.846 3.402-26.818 9.012-38.548l338.566 338.548-338.558 338.558zM634.004 405.573l-102.792-98.786c-5.86-5.86-13.536-8.79-21.21-8.79s-15.352 2.93-21.21 8.79l-98.792 98.79-338.572-338.55c11.736-5.618 24.714-9.028 38.572-9.028h844c13.854 0 26.824 3.406 38.558 9.020l-338.554 338.554z" />
<glyph unicode="&#xe987;" glyph-name="email" d="M0 831.999v-768h1024v768h-1024zM918.101 746.666l-406.101-329.088-406.101 329.088h812.203zM85.333 149.332v504.192l426.667-345.771 426.667 345.771v-504.192h-853.333z" />
<glyph unicode="&#xe988;" glyph-name="facebook" d="M384 618.666h-128v-170.667h128v-512h213.333v512h155.392l15.275 170.667h-170.667v71.125c0 40.747 8.192 56.875 47.573 56.875h123.093v213.333h-162.475c-153.429 0-221.525-67.541-221.525-196.907v-144.427z" />
<glyph unicode="&#xe989;" glyph-name="info" d="M512 874.666c235.264 0 426.667-191.403 426.667-426.667s-191.403-426.667-426.667-426.667-426.667 191.403-426.667 426.667 191.403 426.667 426.667 426.667zM512 959.999c-282.752 0-512-229.248-512-512s229.248-512 512-512 512 229.248 512 512-229.248 512-512 512zM425.259 276.906c24.064 76.331 69.632 167.765 77.696 190.891 11.648 33.579-9.003 48.469-74.24-8.917l-14.507 27.307c74.411 80.939 227.627 99.243 175.488-26.155-32.555-78.293-55.851-131.157-69.163-171.947-19.413-59.435 29.611-35.328 77.611 9.003 6.528-10.667 8.661-14.123 15.189-26.411-106.581-101.461-224.896-110.421-188.075 6.229zM627.584 625.45c-22.699-19.328-56.32-18.901-75.136 0.939s-15.659 51.541 6.997 70.869c22.699 19.328 56.32 18.859 75.136-0.939 18.731-19.883 15.659-51.584-6.997-70.869z" />
<glyph unicode="&#xe98a;" glyph-name="phone-1" d="M853.333-5.164l-150.229 289.92c-0.341-0.171-84.224-41.387-88.064-43.136-95.573-46.336-290.091 333.653-196.651 383.744l88.875 43.776-149.035 290.859-89.856-44.331c-307.285-160.213 180.608-1108.565 494.933-964.907 5.163 2.347 89.685 43.904 90.027 44.075z" />
<glyph unicode="&#xe98b;" glyph-name="phone-2" d="M263.509 903.594l121.344 56.405 172.416-336.64-116.224-57.216c-22.955-53.717 92.117-268.331 140.672-271.872 3.84 2.475 113.963 56.661 113.963 56.661l175.36-338.432s-117.931-57.771-121.771-59.563c-335.445-153.216-815.061 779.008-485.76 950.656zM345.813 849.236l-43.648-21.504c-225.877-117.845 178.219-903.893 411.648-797.269l41.429 20.224-96.896 187.008-43.776-21.333c-134.955-66.005-352.512 350.677-215.68 424.021l42.965 21.205-96.043 187.648z" />
<glyph unicode="&#xe98c;" glyph-name="shipping-box" d="M671.744 248.191l14.891 8.491v-73.259l-14.891-8.32v73.088zM817.408 257.876l14.592 8.363v73.259l-14.635-8.32v-73.301zM756.437 223.188l14.635 8.32v73.259l-14.635-8.32v-73.259zM781.099 237.226l14.891 8.491v73.259l-14.891-8.491v-73.259zM731.947 209.236l14.635 8.363v73.259l-14.635-8.363v-73.259zM696.917 189.311l14.635 8.32v73.259l-14.635-8.32v-73.259zM981.333 663.85v-490.965l-416-236.885-522.667 297.728v490.965l416.725 235.307 521.941-296.149zM459.264 861.951l-89.856-50.773 379.264-223.445 99.413 53.589-388.821 220.629zM512 410.111l-384 222.635v-349.44l384-218.709v345.515zM661.035 540.5l-377.472 222.208-106.155-59.947 378.027-219.221 105.6 56.96zM896 570.196l-298.667-160.981v-356.779l298.667 170.027v347.733z" />
<glyph unicode="&#xe98d;" glyph-name="hours" d="M800.292 697.51l175.374-12.776 12.776 175.372-60.1 4.378-5.026-68.998c-96.276 104.162-231.844 164.514-375.757 164.514-282.319 0-511.999-229.684-511.999-511.999s229.684-511.999 512.001-511.999c170.714 0 329.689 84.918 425.257 227.158l-50.020 33.606c-84.352-125.55-224.628-200.504-375.237-200.504-249.092-0.002-451.741 202.65-451.741 451.739s202.648 451.739 451.739 451.739c128.1 0 248.702-54.252 333.799-147.714l-76.688 5.586-4.378-60.102zM296.071 391.412c0 19.372 19.374 31.944 46.9 45.88 31.604 15.972 53.694 34.324 53.694 73.748 0 46.56-29.908 75.446-83.602 75.446-46.22 0-80.544-22.090-95.498-39.082l33.646-36.026c12.232 12.574 32.626 26.848 54.376 26.848 17.67 0 29.226-9.516 29.226-27.868 0-28.546-28.208-40.78-57.094-53.694-48.938-22.090-60.834-51.318-60.834-114.19h180.122v48.938h-100.936zM571.007 442.050v142.058h-37.382l-112.152-142.058v-48.598h95.158v-50.638h54.376v50.638h29.908v48.598h-29.908zM522.749 442.052h-47.24l47.24 60.494v-60.494zM748.067 524.296c-26.168 0-48.938-12.234-61.854-33.306v99.576h-54.376v-248.092h54.376v102.294c6.8 19.032 24.812 31.606 37.724 31.606 15.634 0 25.828-10.536 25.828-33.646v-100.256h54.378v114.19c-0.002 30.928-8.16 67.634-56.076 67.634z" />
<glyph unicode="&#xe98e;" glyph-name="star" d="M512 947.711l120.875-371.968h391.125l-316.459-229.931 120.875-371.968-316.416 229.888-316.459-229.888 120.875 371.968-316.416 229.931h391.125z" />
<glyph unicode="&#xe98f;" glyph-name="star-2" d="M512 934.954l156.501-322.901 355.499-49.109-258.731-248.661 63.147-353.237-316.416 169.259-316.459-169.259 63.189 353.237-258.731 248.661 355.499 49.109z" />
<glyph unicode="&#xe990;" glyph-name="xing" d="M635.179-64.001l-227.157 412.459 344.32 611.541h210.475l-344.277-611.541 224.853-412.459h-208.213zM324.096 746.666h-210.731l118.101-202.411-175.573-309.589h209.664l175.659 310.229-117.12 201.771z" />
</font>
</defs>
</svg>
